Вы посетили страницу нашего torrent трекера и теперь имеете возможность скачать бесплатно через торрент Она его обожает / Elle l'adore (2014) BDRip 1080p | P в хорошем качестве. Только лучшие релизы, на свободном torrent трекере.

 

rico ®

Пол:
Мужской
Стаж:
2 года 5 месяцев
Сообщений:
1495


Информация о фильме
Название: Она его обожает
Оригинальное название: Elle l#039;adore
Год выхода: 2014
Жанр: Триллер, драма, комедия
Режиссер: Жанна Эрри
В ролях: Сандрин Киберлэн, Лоран Лафитт, Паскаль Демолон, Оливия Коте, Николас Бридет, Себастьен Кнафо, Мюриэль Майетт, Бенжамин Лаверн, Луи Лесаж, Элен Александридис
О фильме:
Мюриель престижный и знаменитый косметолог. Мама двух прекрасных детишек и самая лучшая подруга для своих знакомых девушек. Она является большой поклонницей популярного певца и красавчика Венсана Лакруа. Однажды он постучался к ней в дверь и попросил о помощи.. С этого момента всё только начинается…

Выпущено: Франция / Les Productions du Trésor, Chi-Fou-Mi Productions, StudioCanal
Продолжительность: 01:44:21
Перевод: Профессиональный многоголосый [НТВ+]
Файл
Формат: MKV
Качество: BDRip 1080p
Видео: MPEG-4 AVC, 8984 Кбит/с, 1920x800
Аудио 1: Русский (AC3, 6 ch, 384 Кбит/с) MVO
Аудио 2: Французский (DTS, 6 ch, 1509 Кбит/с) Original
Субтитры: Нет!
Семпл

MI

Общее
Уникальный идентификатор : 172336017567937263073488295340943456069 (0x81A6B5AD221BAF169F1EA69F594DB745)
Полное имя : E:Раздача-BDRipOna_Ego_Obozhaet.2014.BDRip.1080p.mkv
Формат : Matroska
Версия формата : Version 2
Размер файла : 7,93 Гбайт
Продолжительность : 1 ч. 44 м.
Общий поток : 10,9 Мбит/сек
Название фильма : Elle l#039;adore (2014) BDRip1080p
Дата кодирования : UTC 2017-03-20 16:46:27
Программа кодирования : mkvmerge v5.8.0 (#039;No Sleep / Pillow#039;) built on Sep 2 2012 15:37:04
Библиотека кодирования : libebml v1.2.3 + libmatroska v1.3.0
Видео
Идентификатор : 1
Формат : AVC
Формат/Информация : Advanced Video Codec
Профиль формата : High@L4.1
Параметр CABAC формата : Да
Параметр ReFrames формата : 5 кадров
Идентификатор кодека : V_MPEG4/ISO/AVC
Продолжительность : 1 ч. 44 м.
Битрейт : 8984 Кбит/сек
Ширина : 1920 пикселей
Высота : 800 пикселей
Соотношение сторон : 2,40:1
Режим частоты кадров : Постоянный
Частота кадров : 24,000 кадра/сек
Цветовое пространство : YUV
Субдискретизация насыщенности : 4:2:0
Битовая глубина : 8 бит
Тип развёртки : Прогрессивная
Бит/(Пиксели*Кадры) : 0.244
Размер потока : 6,39 Гбайт (81%)
Заголовок : Elle l#039;adore (2014)
Библиотека кодирования : x264 core 144 r2525 40bb568
Настройки программы : cabac=1 / ref=5 / deblock=1:0:0 / analyse=0x3:0x113 / me=umh / subme=8 / psy=1 / psy_rd=1.00:0.00 / mixed_ref=1 / me_range=16 / chroma_me=1 / trellis=1 / 8x8dct=1 / cqm=0 / deadzone=21,11 / fast_pskip=0 / chroma_qp_offset=-2 / threads=12 / lookahead_threads=2 / sliced_threads=0 / nr=0 / decimate=1 / interlaced=0 / bluray_compat=0 / constrained_intra=0 / bframes=3 / b_pyramid=2 / b_adapt=1 / b_bias=0 / direct=1 / weightb=1 / open_gop=0 / weightp=2 / keyint=250 / keyint_min=24 / scenecut=40 / intra_refresh=0 / rc_lookahead=40 / rc=2pass / mbtree=1 / bitrate=8984 / ratetol=1.0 / qcomp=0.60 / qpmin=0 / qpmax=69 / qpstep=4 / cplxblur=20.0 / qblur=0.5 / ip_ratio=1.40 / aq=1:1.00
Язык : English
Default : Да
Forced : Нет
Аудио #1
Идентификатор : 2
Формат : AC-3
Формат/Информация : Audio Coding 3
Расширение режима : CM (complete main)
Параметр Endianness формата : Big
Идентификатор кодека : A_AC3
Продолжительность : 1 ч. 44 м.
Вид битрейта : Постоянный
Битрейт : 384 Кбит/сек
Каналы : 6 каналов
Расположение каналов : Front: L C R, Side: L R, LFE
Частота : 48,0 КГц
Битовая глубина : 16 бит
Метод сжатия : С потерями
Размер потока : 287 Мбайт (4%)
Заголовок : MVO (НТВ+)
Язык : Russian
Default : Да
Forced : Нет
Аудио #2
Идентификатор : 3
Формат : DTS
Формат/Информация : Digital Theater Systems
Режим : 16
Параметр Endianness формата : Big
Идентификатор кодека : A_DTS
Продолжительность : 1 ч. 44 м.
Вид битрейта : Постоянный
Битрейт : 1509 Кбит/сек
Каналы : 6 каналов
Расположение каналов : Front: L C R, Side: L R, LFE
Частота : 48,0 КГц
Битовая глубина : 24 бит
Метод сжатия : С потерями
Размер потока : 1,10 Гбайт (14%)
Заголовок : Original
Язык : French
Default : Нет
Forced : Нет
Меню
00:00:00.000 : en:00:00:00.000
00:08:03.458 : en:00:08:03.458
00:15:08.250 : en:00:15:08.250
00:22:37.583 : en:00:22:37.583
00:32:29.250 : en:00:32:29.250
00:40:06.375 : en:00:40:06.375
00:48:01.000 : en:00:48:01.000
00:56:26.542 : en:00:56:26.542
01:02:27.542 : en:01:02:27.542
01:09:15.500 : en:01:09:15.500
01:20:13.417 : en:01:20:13.417
01:31:55.000 : en:01:31:55.000

Награды

Сезар, 2015 год
Номинации (2):
Лучшая актриса (Сандрин Киберлэн)
Лучшая дебютная работа

Скриншоты

Скачать

Для того, чтобы

Она его обожает / Elle l'adore (2014) BDRip 1080p | P

с нашего сайта, Вам необходимо Войти на сайт под своим логином! Если у Вас ещё нет логина, тогда Вам нужно сначала:




Как скачивать? · Что такое торрент? · Рейтинг и ограничения

Показать сообщения:    

Текущее время: 22-Фев 10:29

Часовой пояс: UTC + 4



Вы не можете начинать темы
Вы не можете отвечать на сообщения
Вы не можете редактировать свои сообщения
Вы не можете удалять свои сообщения
Вы не можете голосовать в опросах
Вы не можете прикреплять файлы к сообщениям
Вы не можете скачивать файлы

Скачать через торрент фильмы 4K Ultra HD 2160p бесплатно, на первом свободном torrent трекере без надоедливой рекламы. Качаем без ограничений, рейтингов и прочих трудностей. Ищите любимый сериал, у нас вы найдёте множество сериалов, фильмов, игр, музыки. Скачать торрентом не составит труда даже не опытному пользователю. Все торрент файлы доступны к скачиванию только зарегистрированному пользователю. Пройди регистрацию на freetorrent и качай по полной без ограничений. И не забудьте поделиться ссылкой на наш сайт - мы будем очень благодарны. Это даёт нам сил и заряда для жизни проекта.

Ежедневно в мир выходит столько новых картин, что уследить за всеми просто не представляется возможным. На нашем крупнейшем русскоязычном торрент трекере вы сможете без труда скачать фильмы 4к через торрент бесплатно новинки фильмов, не проходя утомительную регистрацию с подтверждением в смс, без назойливой рекламы и перехода по подозрительным ссылкам, все желаемые файлы находятся в открытом доступе и доступны к загрузке без начисления рейтинга. Скачать новинки выгодно не только в финансовом плане, любую загруженную киноленту можно посмотреть в удобное время и в высоком качестве. Самая лучшая подборка кино фильмов 60 fps | UHD 2160p | 4K утолит желание каждого киномана, каталог постоянно пополняется только лучшими релизами. У нас представлена огромная коллекция как недавно вышедших новинок, так и давно полюбившихся бестселлеров. Для того, чтобы получить файл, вам стоит лишь перейти на вкладку искомого материала и скачать нужный торрент и подождать, пока программа перенесет полнометражную картину на компьютер. Главная страница послужит путеводителем и афишей, где можно за несколько минут найти необходимое. Первый русский свободный торрент сделан с максимальным комфортом для пользователя, не нужно тратить время на изучение интерфейса. Желаем вам приятного просмотра! Постоянное обновление и пополнение - новинками популярных игр, новый и безопасный софт, мультимедиа кпк Свободный торрент трекер.