Вы посетили страницу нашего torrent трекера и теперь имеете возможность скачать бесплатно через торрент Вдовы / Widows (2018) UHD BDRemux 2160p | 4K | HDR | Лицензия в хорошем качестве. Только лучшие релизы, на свободном torrent трекере.

 

briqada ®

Пол:
Не указан
Стаж:
2 года 1 месяц
Сообщений:
2446

Информация о фильме
Название: Вдовы
Оригинальное название: Widows
Год выхода: 2018
Жанр: Триллер, драма, мелодрама, криминал
Режиссер: Стив МакКуин (II)
В ролях: Виола Дэвис, Лиам Нисон, Джон Бернтал, Мануэль Рульфо, Коберн Госс, Мишель Родригес, Алехандро Вердин, Бейли Рюз Уолтерс, Элизабет Дебики, Кэрри Кун, Синтия Эриво, Колин Фаррелл, Дэниэл Калуя, Роберт Дювалл

О фильме: История о жёнах грабителей, погибших при неудачном налёте. Новоиспечённые вдовы берутся сами закончить начатое, разобраться с полицией и конкурентами, а главное — выяснить, кто же подставил их мужей.

Страна: Великобритания, США
Студия: Regency Enterprises, See-Saw Films, Film4
Продолжительность: 02:09:34
Перевод: Дублированный | Лицензия
Качество: BDRemux 2160p
Видео: MPEG-H HEVC HDR Video, 3840x2160, 47800 Kbit/s, 23.976 fps
Звук:
Аудио #01: 48 kHz, DTS, 5.1, 768 Kbps | Дублированный | RUS |
Аудио #02: 48 kHz, AC3, 5.1, 448 Kbps | Дублированный | UKR |
Аудио #03: 48 kHz, TrueHD, 7.1, 4218 Kbps | Оригинал | ENG |
Аудио #04: 48 kHz, AC3, 5.1, 640 Kbps | Оригинал | ENG |
Субтитры: Русские (Forced, full), английские

MI

General
Unique ID : 227714147750947918739129283142967887531 (0xAB50264B9F83BFA8C202328EEE7806AB)
Complete name : D:Video111Widows.2018.Lic.BDREMUX.2160p.HDR.seleZen.mkv
Format : Matroska
Format version : Version 4
File size : 48.8 GiB
Duration : 2 h 9 min
Overall bit rate mode : Variable
Overall bit rate : 54.0 Mb/s
Movie name : Widows 2018 from селезень
Encoded date : UTC 2019-02-09 10:29:58
Writing application : mkvmerge v29.0.0 (#039;Like It Or Not#039;) 64-bit
Writing library : libebml v1.3.6 + libmatroska v1.4.9
Video
ID : 1
Format : HEVC
Format/Info : High Efficiency Video Coding
Commercial name : HDR10
Format profile : Main 10@L5.1@High
Codec ID : V_MPEGH/ISO/HEVC
Duration : 2 h 9 min
Bit rate : 47.8 Mb/s
Width : 3 840 pixels
Height : 2 160 pixels
Display aspect ratio : 16:9
Frame rate mode : Constant
Frame rate : 23.976 (24000/1001) FPS
Color space : YUV
Chroma subsampling : 4:2:0 (Type 2)
Bit depth : 10 bits
Bits/(Pixel*Frame) : 0.240
Stream size : 43.3 GiB (89%)
Writing library : ATEME Titan File 3.9.0 (4.9.0.0)
Language : English
Default : Yes
Forced : No
Color range : Limited
Color primaries : BT.2020
Transfer characteristics : PQ
Matrix coefficients : BT.2020 non-constant
Mastering display color pri : Display P3
Mastering display luminance : min: 0.0050 cd/m2, max: 1000 cd/m2
Audio #1
ID : 2
Format : DTS
Format/Info : Digital Theater Systems
Codec ID : A_DTS
Duration : 2 h 9 min
Bit rate mode : Constant
Bit rate : 768 kb/s
Channel(s) : 6 channels
Channel layout : C L R Ls Rs LFE
Sampling rate : 48.0 kHz
Frame rate : 93.750 FPS (512 SPF)
Bit depth : 24 bits
Compression mode : Lossy
Delay relative to video : -1 ms
Stream size : 712 MiB (1%)
Title : Dub [License]
Language : Russian
Default : Yes
Forced : Yes
Audio #2
ID : 3
Format : AC-3
Format/Info : Audio Coding 3
Commercial name : Dolby Digital
Codec ID : A_AC3
Duration : 2 h 9 min
Bit rate mode : Constant
Bit rate : 448 kb/s
Channel(s) : 6 channels
Channel layout : L R C LFE Ls Rs
Sampling rate : 48.0 kHz
Frame rate : 31.250 FPS (1536 SPF)
Bit depth : 16 bits
Compression mode : Lossy
Delay relative to video : -1 ms
Stream size : 415 MiB (1%)
Title : License
Language : Ukrainian
Service kind : Complete Main
Default : No
Forced : No
Audio #3
ID : 4
Format : MLP FBA 16-ch
Format/Info : Meridian Lossless Packing FBA with 16-channel presentation
Commercial name : Dolby TrueHD with Dolby Atmos
Codec ID : A_TRUEHD
Duration : 2 h 9 min
Bit rate mode : Variable
Bit rate : 4 218 kb/s
Maximum bit rate : 7 818 kb/s
Channel(s) : 8 channels
Channel layout : L R C LFE Ls Rs Lb Rb
Sampling rate : 48.0 kHz
Frame rate : 1 200.000 FPS (40 SPF)
Compression mode : Lossless
Delay relative to video : 32 ms
Stream size : 3.82 GiB (8%)
Title : Original
Language : English
Default : No
Forced : No
Number of dynamic objects : 13
Bed channel count : 1 channel
Bed channel configuration : LFE
Audio #4
ID : 5
Format : AC-3
Format/Info : Audio Coding 3
Commercial name : Dolby Digital
Codec ID : A_AC3
Duration : 2 h 9 min
Bit rate mode : Constant
Bit rate : 640 kb/s
Channel(s) : 6 channels
Channel layout : L R C LFE Ls Rs
Sampling rate : 48.0 kHz
Frame rate : 31.250 FPS (1536 SPF)
Bit depth : 16 bits
Compression mode : Lossy
Delay relative to video : 31 ms
Stream size : 593 MiB (1%)
Language : English
Service kind : Complete Main
Default : No
Forced : No
Text #1
ID : 6
Format : UTF-8
Codec ID : S_TEXT/UTF8
Codec ID/Info : UTF-8 Plain Text
Duration : 2 h 4 min
Bit rate : 0 b/s
Count of elements : 12
Stream size : 546 Bytes (0%)
Title : Forced
Language : Russian
Default : Yes
Forced : Yes
Text #2
ID : 7
Format : UTF-8
Codec ID : S_TEXT/UTF8
Codec ID/Info : UTF-8 Plain Text
Duration : 2 h 8 min
Bit rate : 92 b/s
Count of elements : 1518
Stream size : 86.7 KiB (0%)
Title : Full
Language : Russian
Default : No
Forced : No
Text #3
ID : 8
Format : UTF-8
Codec ID : S_TEXT/UTF8
Codec ID/Info : UTF-8 Plain Text
Duration : 2 h 5 min
Bit rate : 63 b/s
Count of elements : 1895
Stream size : 58.7 KiB (0%)
Title : Full
Language : English
Default : No
Forced : No
Text #4
ID : 9
Format : UTF-8
Codec ID : S_TEXT/UTF8
Codec ID/Info : UTF-8 Plain Text
Duration : 2 h 5 min
Bit rate : 71 b/s
Count of elements : 2115
Stream size : 65.8 KiB (0%)
Title : SDH
Language : English
Default : No
Forced : No
Menu
00:00:00.000 : en:Chapter 01
00:03:41.388 : en:Chapter 02
00:09:00.415 : en:Chapter 03
00:14:14.604 : en:Chapter 04
00:21:43.010 : en:Chapter 05
00:28:14.401 : en:Chapter 06
00:36:07.082 : en:Chapter 07
00:41:01.751 : en:Chapter 08
00:45:58.673 : en:Chapter 09
00:53:18.070 : en:Chapter 10
00:58:11.321 : en:Chapter 11
01:03:51.703 : en:Chapter 12
01:09:56.776 : en:Chapter 13
01:12:53.786 : en:Chapter 14
01:17:21.846 : en:Chapter 15
01:26:19.674 : en:Chapter 16
01:33:29.312 : en:Chapter 17
01:35:53.373 : en:Chapter 18
01:39:10.486 : en:Chapter 19
01:42:20.092 : en:Chapter 20
01:46:12.408 : en:Chapter 21
01:53:14.121 : en:Chapter 22
01:58:18.675 : en:Chapter 23
02:03:48.671 : en:Chapter 24
Скачать

Для того, чтобы

Вдовы / Widows (2018) UHD BDRemux 2160p | 4K | HDR | Лицензия

с нашего сайта, Вам необходимо Войти на сайт под своим логином! Если у Вас ещё нет логина, тогда Вам нужно сначала:




Как скачивать? · Что такое торрент? · Рейтинг и ограничения

Показать сообщения:    

Текущее время: 22-Фев 09:51

Часовой пояс: UTC + 4



Вы не можете начинать темы
Вы не можете отвечать на сообщения
Вы не можете редактировать свои сообщения
Вы не можете удалять свои сообщения
Вы не можете голосовать в опросах
Вы не можете прикреплять файлы к сообщениям
Вы не можете скачивать файлы

Скачать через торрент фильмы 4K Ultra HD 2160p бесплатно, на первом свободном torrent трекере без надоедливой рекламы. Качаем без ограничений, рейтингов и прочих трудностей. Ищите любимый сериал, у нас вы найдёте множество сериалов, фильмов, игр, музыки. Скачать торрентом не составит труда даже не опытному пользователю. Все торрент файлы доступны к скачиванию только зарегистрированному пользователю. Пройди регистрацию на freetorrent и качай по полной без ограничений. И не забудьте поделиться ссылкой на наш сайт - мы будем очень благодарны. Это даёт нам сил и заряда для жизни проекта.

Ежедневно в мир выходит столько новых картин, что уследить за всеми просто не представляется возможным. На нашем крупнейшем русскоязычном торрент трекере вы сможете без труда скачать фильмы 4к через торрент бесплатно новинки фильмов, не проходя утомительную регистрацию с подтверждением в смс, без назойливой рекламы и перехода по подозрительным ссылкам, все желаемые файлы находятся в открытом доступе и доступны к загрузке без начисления рейтинга. Скачать новинки выгодно не только в финансовом плане, любую загруженную киноленту можно посмотреть в удобное время и в высоком качестве. Самая лучшая подборка кино фильмов 60 fps | UHD 2160p | 4K утолит желание каждого киномана, каталог постоянно пополняется только лучшими релизами. У нас представлена огромная коллекция как недавно вышедших новинок, так и давно полюбившихся бестселлеров. Для того, чтобы получить файл, вам стоит лишь перейти на вкладку искомого материала и скачать нужный торрент и подождать, пока программа перенесет полнометражную картину на компьютер. Главная страница послужит путеводителем и афишей, где можно за несколько минут найти необходимое. Первый русский свободный торрент сделан с максимальным комфортом для пользователя, не нужно тратить время на изучение интерфейса. Желаем вам приятного просмотра! Постоянное обновление и пополнение - новинками популярных игр, новый и безопасный софт, мультимедиа кпк Свободный торрент трекер.