Вы посетили страницу нашего torrent трекера и теперь имеете возможность скачать бесплатно через торрент Клуб монстров / The Monster Club (1981) BDRip 720p от KORSAR | A, L1 в хорошем качестве. Только лучшие релизы, на свободном torrent трекере.

 

rico ®

Пол:
Мужской
Стаж:
2 года 4 месяца
Сообщений:
738


Название: Клуб монстров
Оригинальное название: The Monster Club
Год выпуска: 1981
Выпущено: Великобритания, Chips Productions Ltd., Sword Sorcery
Жанр: Ужасы, комедия, музыка
Режиссер: Рой Уорд Бэйкер
В ролях: Винсент Прайс, Дональд Плезенс, Джон Кэрредин, Стюарт Уитман, Ричард Джонсон, Барбара Келлерман, Бритт Экланд, Саймон Уорд, Энтони Валентайн, Патрик Мэги
О фильме: Писатель рассказов ужасов Рональд Четвинд-Хэйс приглашен вампиром Эрасмусом в Клуб монстров, где обитающие там чудовища рассказывают ему три истории. Первая повествует о монстре по имени Рейвен, который на самом деле упырь Шедмок — результат кровосмешения между вампиром и оборотнем, живущий в отшельничестве из-за своего невероятного уродства. Он нанимает девушку Анжелу Джонс, чтобы она описала все его антикварные драгоценности... Во второй истории писатель Линтом Бутоски рассказывает о своем детстве, когда он не знал, что его отец — самый настоящий вампир, за которым охотятся специальные охотники на вампиров под руководством священника Скотланд-Ярда Пикеринга… Последняя история рассказывает о режиссере фильмов ужасов Сэме, который ищет место для съемок своего нового фильма. Он находит деревушку, населенную самыми разнообразными упырями и монстрами, которые рады прибытию съемочной бригады, как источнику свежего человеческого мяса…
Продолжительность: 01:37:44
Перевод: Авторский одноголосый, любительский
Субтитры: Английские, французские, итальянские, испанские, португальские
Навигация по главам: Есть
Качество: BDRip 720p
Видео: MPEG-4 AVC, 5370 Кбит/сек, 1280x720, 24,000 кадра/сек
Аудио #1: AC3, 2 ch, 192 Кбит/сек | Русский, авторский (одноголосый закадровый) Леонид Володарский
Аудио #2: AC3, 2 ch, 192 Кбит/сек | Русский, любительский (одноголосый закадровый) Не опознан
Аудио #3: AC3, 1 ch, 448 Кбит/сек | Английский, оригинал

Скриншоты

Инфо-файл

x264 [info]: frame I:852 Avg QP:13.93 size: 158174
x264 [info]: frame P:29927 Avg QP:17.60 size: 61444
x264 [info]: frame B:109962 Avg QP:19.30 size: 18012
------------------------------------------------------
Общее
Уникальный идентификатор : 211639895628567037246183241745774207134 (0x9F385C7A57C8ED0A85E545761B1CE09E)
Полное имя : Клуб.монстров.1981.BDRip.720p.KORSAR.mkv
Формат : Matroska
Версия формата : Version 2
Размер файла : 4,24 Гбайт
Продолжительность : 1 ч. 37 м.
Общий поток : 6204 Кбит/сек
Дата кодирования : UTC 2019-01-12 22:11:08
Программа кодирования : mkvmerge v5.8.0 (#039;No Sleep / Pillow#039;) built on Sep 2 2012 15:37:04
Библиотека кодирования : libebml v1.2.3 + libmatroska v1.3.0
Видео
Идентификатор : 1
Формат : AVC
Формат/Информация : Advanced Video Codec
Профиль формата : High@L4.1
Настройки формата : CABAC / 9 Ref Frames
Параметр CABAC формата : Да
Параметр RefFrames формата : 9 кадров
Идентификатор кодека : V_MPEG4/ISO/AVC
Продолжительность : 1 ч. 37 м.
Битрейт : 5370 Кбит/сек
Ширина : 1280 пикселей
Высота : 720 пикселей
Соотношение сторон : 16:9
Режим частоты кадров : Постоянный
Частота кадров : 24,000 кадра/сек
Цветовое пространство : YUV
Субдискретизация насыщенности : 4:2:0
Битовая глубина : 8 бит
Тип развёртки : Прогрессивная
Бит/(Пиксели*Кадры) : 0.243
Размер потока : 3,58 Гбайт (85%)
Заголовок : RIP | MZMA
Библиотека кодирования : x264 core 148 r2638 7599210
Настройки программы : cabac=1 / ref=9 / deblock=1:-3:-3 / analyse=0x3:0x113 / me=umh / subme=11 / psy=1 / psy_rd=1.00:0.00 / mixed_ref=1 / me_range=48 / chroma_me=1 / trellis=2 / 8x8dct=1 / cqm=0 / deadzone=21,11 / fast_pskip=0 / chroma_qp_offset=-2 / threads=6 / lookahead_threads=1 / sliced_threads=0 / nr=0 / decimate=0 / interlaced=0 / bluray_compat=0 / constrained_intra=0 / bframes=16 / b_pyramid=2 / b_adapt=2 / b_bias=0 / direct=3 / weightb=1 / open_gop=0 / weightp=2 / keyint=250 / keyint_min=24 / scenecut=40 / intra_refresh=0 / rc_lookahead=60 / rc=2pass / mbtree=1 / bitrate=5370 / ratetol=1.0 / qcomp=0.60 / qpmin=0 / qpmax=69 / qpstep=4 / cplxblur=20.0 / qblur=0.5 / vbv_maxrate=50000 / vbv_bufsize=62500 / nal_hrd=none / filler=0 / ip_ratio=1.40 / aq=1:1.00
Язык : English
По умолчанию : Да
Принудительно : Нет
Цветовой диапазон : Limited
Основные цвета : BT.709
Характеристики трансфера : BT.709
Коэффициенты матрицы : BT.709
Аудио #1
Идентификатор : 2
Формат : AC-3
Формат/Информация : Audio Coding 3
Идентификатор кодека : A_AC3
Продолжительность : 1 ч. 37 м.
Вид битрейта : Постоянный
Битрейт : 192 Кбит/сек
Каналы : 2 канала
Расположение каналов : Front: L R
Частота : 48,0 КГц
Частота кадров : 31,250 кадров/сек (1536 SPF)
Битовая глубина : 16 бит
Метод сжатия : С потерями
Размер потока : 134 Мбайт (3%)
Заголовок : AVO | Л. Володарский
Язык : Russian
По умолчанию : Да
Принудительно : Нет
Аудио #2
Идентификатор : 3
Формат : AC-3
Формат/Информация : Audio Coding 3
Идентификатор кодека : A_AC3
Продолжительность : 1 ч. 37 м.
Вид битрейта : Постоянный
Битрейт : 192 Кбит/сек
Каналы : 2 канала
Расположение каналов : Front: L R
Частота : 48,0 КГц
Частота кадров : 31,250 кадров/сек (1536 SPF)
Битовая глубина : 16 бит
Метод сжатия : С потерями
Размер потока : 134 Мбайт (3%)
Заголовок : VO | Не опознан
Язык : Russian
По умолчанию : Нет
Принудительно : Нет
Аудио #3
Идентификатор : 4
Формат : AC-3
Формат/Информация : Audio Coding 3
Идентификатор кодека : A_AC3
Продолжительность : 1 ч. 37 м.
Вид битрейта : Постоянный
Битрейт : 448 Кбит/сек
Каналы : 1 канал
Расположение каналов : Front: C
Частота : 48,0 КГц
Частота кадров : 31,250 кадров/сек (1536 SPF)
Битовая глубина : 16 бит
Метод сжатия : С потерями
Размер потока : 313 Мбайт (7%)
Заголовок : Original
Язык : Russian
По умолчанию : Нет
Принудительно : Нет
Текст #1
Идентификатор : 5
Формат : UTF-8
Идентификатор кодека : S_TEXT/UTF8
Идентификатор кодека/Информация : UTF-8 Plain Text
Язык : English
По умолчанию : Нет
Принудительно : Нет
Текст #2
Идентификатор : 6
Формат : UTF-8
Идентификатор кодека : S_TEXT/UTF8
Идентификатор кодека/Информация : UTF-8 Plain Text
Язык : French
По умолчанию : Нет
Принудительно : Нет
Текст #3
Идентификатор : 7
Формат : UTF-8
Идентификатор кодека : S_TEXT/UTF8
Идентификатор кодека/Информация : UTF-8 Plain Text
Язык : Italian
По умолчанию : Нет
Принудительно : Нет
Текст #4
Идентификатор : 8
Формат : UTF-8
Идентификатор кодека : S_TEXT/UTF8
Идентификатор кодека/Информация : UTF-8 Plain Text
Язык : Spanish
По умолчанию : Нет
Принудительно : Нет
Текст #5
Идентификатор : 9
Формат : UTF-8
Идентификатор кодека : S_TEXT/UTF8
Идентификатор кодека/Информация : UTF-8 Plain Text
Язык : Portuguese
По умолчанию : Нет
Принудительно : Нет
Меню
00:00:00.000 : en:Chapter 1
00:10:08.000 : en:Chapter 2
00:17:48.000 : en:Chapter 3
00:26:54.000 : en:Chapter 4
00:33:35.625 : en:Chapter 5
00:43:55.833 : en:Chapter 6
00:52:45.000 : en:Chapter 7
00:59:02.416 : en:Chapter 8
01:07:12.000 : en:Chapter 9
01:16:43.000 : en:Chapter 10
01:23:52.000 : en:Chapter 11
01:28:52.000 : en:Chapter 12
:
Скачать

Для того, чтобы

Клуб монстров / The Monster Club (1981) BDRip 720p от KORSAR | A, L1

с нашего сайта, Вам необходимо Войти на сайт под своим логином! Если у Вас ещё нет логина, тогда Вам нужно сначала:




Как скачивать? · Что такое торрент? · Рейтинг и ограничения

Показать сообщения:    

Текущее время: 17-Янв 21:43

Часовой пояс: UTC + 4



Вы не можете начинать темы
Вы не можете отвечать на сообщения
Вы не можете редактировать свои сообщения
Вы не можете удалять свои сообщения
Вы не можете голосовать в опросах
Вы не можете прикреплять файлы к сообщениям
Вы не можете скачивать файлы

Скачать через торрент фильмы 4K Ultra HD 2160p бесплатно, на первом свободном torrent трекере без надоедливой рекламы. Качаем без ограничений, рейтингов и прочих трудностей. Ищите любимый сериал, у нас вы найдёте множество сериалов, фильмов, игр, музыки. Скачать торрентом не составит труда даже не опытному пользователю. Все торрент файлы доступны к скачиванию только зарегистрированному пользователю. Пройди регистрацию на freetorrent и качай по полной без ограничений. И не забудьте поделиться ссылкой на наш сайт - мы будем очень благодарны. Это даёт нам сил и заряда для жизни проекта.

Ежедневно в мир выходит столько новых картин, что уследить за всеми просто не представляется возможным. На нашем крупнейшем русскоязычном торрент трекере вы сможете без труда скачать фильмы 4к через торрент бесплатно новинки фильмов, не проходя утомительную регистрацию с подтверждением в смс, без назойливой рекламы и перехода по подозрительным ссылкам, все желаемые файлы находятся в открытом доступе и доступны к загрузке без начисления рейтинга. Скачать новинки выгодно не только в финансовом плане, любую загруженную киноленту можно посмотреть в удобное время и в высоком качестве. Самая лучшая подборка кино фильмов 60 fps | UHD 2160p | 4K утолит желание каждого киномана, каталог постоянно пополняется только лучшими релизами. У нас представлена огромная коллекция как недавно вышедших новинок, так и давно полюбившихся бестселлеров. Для того, чтобы получить файл, вам стоит лишь перейти на вкладку искомого материала и скачать нужный торрент и подождать, пока программа перенесет полнометражную картину на компьютер. Главная страница послужит путеводителем и афишей, где можно за несколько минут найти необходимое. Первый русский свободный торрент сделан с максимальным комфортом для пользователя, не нужно тратить время на изучение интерфейса. Желаем вам приятного просмотра! Постоянное обновление и пополнение - новинками популярных игр, новый и безопасный софт, мультимедиа кпк Свободный торрент трекер.