Вы посетили страницу нашего torrent трекера и теперь имеете возможность скачать бесплатно через торрент Идеальная западня / Welcome Home (2018) BDRip 1080p | L2 в хорошем качестве. Только лучшие релизы, на свободном torrent трекере.

 

rico ®

Пол:
Мужской
Стаж:
2 года 4 месяца
Сообщений:
738


Информация о фильме
Название: Идеальная западня
Оригинальное название: Welcome Home
Год выхода: 2018
Жанр: Триллер
Режиссер: Джордж Рэтлифф
В ролях: Аарон Пол, Эмили Ратаковски, Риккардо Скамарчо, Кэти Луиз Саундерс, Элис Беллагамба, Франческо Аквароли, Евгений Крылов, Игорь Михайлов, Дафна Александр, Нав Гхотра
О фильме:
Романтический уик-энд на уединенной роскошной вилле в итальянской Тоскане — вот, что должно помочь вернуть отношениям Брайана и Кэсси искру страсти. Но, едва начав наслаждаться жизнью и друг другом, молодая пара сталкивается со странным незнакомцем, который втягивает их в опасную игру, в которой нельзя доверять никому.

Страна: США
Студия: AMBI Group, Star Thrower Entertainment, Voltage Pictures
Продолжительность: 01:37:52
Перевод: Любительский двухголосый | HiWayGrope
Файл
Кодек: x.264
Качество: BDRip 1080p | Welcome.Home.2018.1080p.BluRay.x264-RUSTED
Видео: MPEG-4 AVC, 8077 Kбит/с, 1920x800, 23.976 кадр/с
Звук: Релиз без Рекламы!
Аудио #1: Русский ( АС3, 6ch, 384 Кбит/с, 48.0 KHz) Любительский (двухголосый, закадровый) HiWayGrope
Аудио #2: Английский ( DTS, 6ch, 1509 Кбит/с, 48.0 KHz)
Субтитры: английские

MediaInfo

Источник: Welcome.Home.2018.1080p.BluRay.x264-RUSTED
General
Unique ID : 197909132919543843997455584046060417119 (0x94E3E99BF152D9EBB6C6B0CE0718305F)
Complete name : Welcome.Home.2018.BDRip.1080p.mkv
Format : Matroska
Format version : Version 4 / Version 2
File size : 6.81 GiB
Duration : 1 h 37 min
Overall bit rate : 9 970 kb/s
Encoded date : UTC 2019-01-10 22:39:18
Writing application : mkvmerge v7.1.0 (#039;Good Love#039;) 64bit built on Jul 27 2014 13:06:55
Writing library : libebml v1.3.0 + libmatroska v1.4.1
Video
ID : 1
Format : AVC
Format/Info : Advanced Video Codec
Format profile : High@L4.1
Format settings, CABAC : Yes
Format settings, RefFrames : 5 frames
Codec ID : V_MPEG4/ISO/AVC
Duration : 1 h 37 min
Bit rate : 8 077 kb/s
Width : 1 920 pixels
Height : 800 pixels
Display aspect ratio : 2.40:1
Frame rate mode : Constant
Frame rate : 23.976 (24000/1001) FPS
Color space : YUV
Chroma subsampling : 4:2:0
Bit depth : 8 bits
Scan type : Progressive
Bits/(Pixel*Frame) : 0.219
Stream size : 5.52 GiB (81%)
Writing library : x264 core 157 r2935 545de2f
Encoding settings : cabac=1 / ref=5 / deblock=1:-1:-1 / analyse=0x3:0x133 / me=umh / subme=8 / psy=1 / psy_rd=1.00:0.15 / mixed_ref=1 / me_range=16 / chroma_me=1 / trellis=1 / 8x8dct=1 / cqm=0 / deadzone=21,11 / fast_pskip=0 / chroma_qp_offset=-4 / threads=24 / lookahead_threads=4 / sliced_threads=0 / nr=0 / decimate=1 / interlaced=0 / bluray_compat=0 / constrained_intra=0 / bframes=3 / b_pyramid=2 / b_adapt=2 / b_bias=0 / direct=3 / weightb=1 / open_gop=0 / weightp=2 / keyint=240 / keyint_min=23 / scenecut=40 / intra_refresh=0 / rc_lookahead=50 / rc=2pass / mbtree=1 / bitrate=8077 / ratetol=1.0 / qcomp=0.60 / qpmin=10 / qpmax=69 / qpstep=4 / cplxblur=20.0 / qblur=0.5 / ip_ratio=1.40 / aq=1:1.00
Language : English
Default : Yes
Forced : No
Audio #1
ID : 2
Format : AC-3
Format/Info : Audio Coding 3
Format settings, Endianness : Big
Codec ID : A_AC3
Duration : 1 h 37 min
Bit rate mode : Constant
Bit rate : 384 kb/s
Channel(s) : 6 channels
Channel positions : Front: L C R, Side: L R, LFE
Sampling rate : 48.0 kHz
Frame rate : 31.250 FPS (1536 SPF)
Bit depth : 16 bits
Compression mode : Lossy
Stream size : 269 MiB (4%)
Language : Russian
Service kind : Complete Main
Default : Yes
Forced : No
Audio #2
ID : 3
Format : DTS
Format/Info : Digital Theater Systems
Mode : 16
Format settings, Endianness : Big
Codec ID : A_DTS
Duration : 1 h 37 min
Bit rate mode : Constant
Bit rate : 1 509 kb/s
Channel(s) : 6 channels
Channel positions : Front: L C R, Side: L R, LFE
Sampling rate : 48.0 kHz
Frame rate : 93.750 FPS (512 SPF)
Bit depth : 24 bits
Compression mode : Lossy
Stream size : 1.03 GiB (15%)
Language : English
Default : No
Forced : No
Text
ID : 4
Format : UTF-8
Codec ID : S_TEXT/UTF8
Codec ID/Info : UTF-8 Plain Text
Duration : 1 h 34 min
Bit rate : 37 b/s
Count of elements : 953
Stream size : 25.8 KiB (0%)
Language : English
Default : No
Forced : No
Menu
00:00:00.000 : en:00:00:00.000
00:06:42.068 : en:00:06:42.068
00:12:26.996 : en:00:12:26.996
00:18:53.007 : en:00:18:53.007
00:25:27.943 : en:00:25:27.943
00:32:08.051 : en:00:32:08.051
00:37:09.394 : en:00:37:09.394
00:42:48.941 : en:00:42:48.941
00:48:54.390 : en:00:48:54.390
00:53:10.687 : en:00:53:10.687
00:59:34.780 : en:00:59:34.780
01:05:20.792 : en:01:05:20.792
01:10:48.744 : en:01:10:48.744
01:16:07.146 : en:01:16:07.146
01:22:30.237 : en:01:22:30.237
01:28:50.367 : en:01:28:50.367
01:34:49.434 : en:01:34:49.434

Скриншоты

Скачать

Для того, чтобы

Идеальная западня / Welcome Home (2018) BDRip 1080p | L2

с нашего сайта, Вам необходимо Войти на сайт под своим логином! Если у Вас ещё нет логина, тогда Вам нужно сначала:




Как скачивать? · Что такое торрент? · Рейтинг и ограничения

Показать сообщения:    

Текущее время: 17-Янв 21:27

Часовой пояс: UTC + 4



Вы не можете начинать темы
Вы не можете отвечать на сообщения
Вы не можете редактировать свои сообщения
Вы не можете удалять свои сообщения
Вы не можете голосовать в опросах
Вы не можете прикреплять файлы к сообщениям
Вы не можете скачивать файлы

Скачать через торрент фильмы 4K Ultra HD 2160p бесплатно, на первом свободном torrent трекере без надоедливой рекламы. Качаем без ограничений, рейтингов и прочих трудностей. Ищите любимый сериал, у нас вы найдёте множество сериалов, фильмов, игр, музыки. Скачать торрентом не составит труда даже не опытному пользователю. Все торрент файлы доступны к скачиванию только зарегистрированному пользователю. Пройди регистрацию на freetorrent и качай по полной без ограничений. И не забудьте поделиться ссылкой на наш сайт - мы будем очень благодарны. Это даёт нам сил и заряда для жизни проекта.

Ежедневно в мир выходит столько новых картин, что уследить за всеми просто не представляется возможным. На нашем крупнейшем русскоязычном торрент трекере вы сможете без труда скачать фильмы 4к через торрент бесплатно новинки фильмов, не проходя утомительную регистрацию с подтверждением в смс, без назойливой рекламы и перехода по подозрительным ссылкам, все желаемые файлы находятся в открытом доступе и доступны к загрузке без начисления рейтинга. Скачать новинки выгодно не только в финансовом плане, любую загруженную киноленту можно посмотреть в удобное время и в высоком качестве. Самая лучшая подборка кино фильмов 60 fps | UHD 2160p | 4K утолит желание каждого киномана, каталог постоянно пополняется только лучшими релизами. У нас представлена огромная коллекция как недавно вышедших новинок, так и давно полюбившихся бестселлеров. Для того, чтобы получить файл, вам стоит лишь перейти на вкладку искомого материала и скачать нужный торрент и подождать, пока программа перенесет полнометражную картину на компьютер. Главная страница послужит путеводителем и афишей, где можно за несколько минут найти необходимое. Первый русский свободный торрент сделан с максимальным комфортом для пользователя, не нужно тратить время на изучение интерфейса. Желаем вам приятного просмотра! Постоянное обновление и пополнение - новинками популярных игр, новый и безопасный софт, мультимедиа кпк Свободный торрент трекер.