Вы посетили страницу нашего torrent трекера и теперь имеете возможность скачать бесплатно через торрент Оставайтесь с нами / Stay Tuned (1992) BDRip 720p от KORSAR | P, P2, A в хорошем качестве. Только лучшие релизы, на свободном torrent трекере.

 

rico ®

Пол:
Мужской
Стаж:
2 года 4 месяца
Сообщений:
738


Название: Оставайтесь с нами
Оригинальное название: Stay Tuned
Год выпуска: 1992
Выпущено: США, Morgan Creek Productions
Жанр: Комедия
Режиссер: Питер Хайэмс
В ролях: Джон Риттер, Пэм Доубер, Джеффри Джонс, Дэвид Том, Хезер МакКомб, Боб Диши, Джойс Гордон, Юджин Леви, Эрик Кинг, Дон Кэлфа
О фильме: Лежебока Рой Нэйбл попадает в иное измерение и оказывается по ту сторону экрана. Если он сможет выжить, то вернется домой. Если же нет, то его закроют, как и любое шоу с низким рейтингом… причем закроют навсегда! Недавно установленная спутниковая тарелка затянула нашего героя и его жену в странный и причудливый телемир. Чету Нэйблсов ждёт вынужденное «гостевое участие» в многочисленных кошмарных шоу, среди которых «Переехать мисс Дэйзи», «Вскрытие богатых и знаменитых», «Адское Эм-Ти-Ви», «Колесо пыток», «Северное обнажение до костей», а также встреча с персонажем, по имени «Робо-кот» (созданным гением анимации Чаком Джонсом). Заправляет всем этим дьявольским телевизионным безобразием продюсер из ада.
Продолжительность: 01:28:04
Перевод: Профессиональный многоголосый, профессиональный двухголосый, авторский
Субтитры: Английские
Навигация по главам: Есть
Качество: BDRip 720p
Видео: MPEG-4 AVC, 5188 Кбит/сек, 1280x544, 23,976 кадра/сек
Аудио #1: AC3, 2 ch, 192 Кбит/сек | Русский, профессиональный (двухголосый закадровый) НТВ+
Аудио #2: AC3, 2 ch, 192 Кбит/сек | Русский, авторский (одноголосый закадровый) Вадим Белов
Аудио #3: AC3, 2 ch, 192 Кбит/сек | Русский, авторский (одноголосый закадровый) Василий Горчаков
Аудио #4: AC3, 2 ch, 192 Кбит/сек | Украинский, профессиональный (многоголосый закадровый) ICTV
Аудио #5: AC3, 2 ch, 224 Кбит/сек | Английский, оригинал

Скриншоты

Инфо-файл

x264 [info]: frame I:1019 Avg QP:14.73 size: 97089
x264 [info]: frame P:27226 Avg QP:16.52 size: 46756
x264 [info]: frame B:98451 Avg QP:18.43 size: 20856
----------------------------------------------------
Общее
Уникальный идентификатор : 226595163039044366360425296325399620365 (0xAA78A416F05DE51F9F2994ECA1192B0D)
Полное имя : Оставайтесь.с.нами.1992.BDRip.720p.KORSAR.mkv
Формат : Matroska
Версия формата : Version 2
Размер файла : 3,80 Гбайт
Продолжительность : 1 ч. 28 м.
Общий поток : 6180 Кбит/сек
Дата кодирования : UTC 2019-01-11 18:25:19
Программа кодирования : mkvmerge v5.8.0 (#039;No Sleep / Pillow#039;) built on Sep 2 2012 15:37:04
Библиотека кодирования : libebml v1.2.3 + libmatroska v1.3.0
Видео
Идентификатор : 1
Формат : AVC
Формат/Информация : Advanced Video Codec
Профиль формата : High@L4.1
Настройки формата : CABAC / 12 Ref Frames
Параметр CABAC формата : Да
Параметр RefFrames формата : 12 кадров
Идентификатор кодека : V_MPEG4/ISO/AVC
Продолжительность : 1 ч. 28 м.
Битрейт : 5188 Кбит/сек
Ширина : 1280 пикселей
Высота : 544 пикселя
Соотношение сторон : 2,35:1
Режим частоты кадров : Постоянный
Частота кадров : 23,976 (24000/1001) кадра/сек
Цветовое пространство : YUV
Субдискретизация насыщенности : 4:2:0
Битовая глубина : 8 бит
Тип развёртки : Прогрессивная
Бит/(Пиксели*Кадры) : 0.311
Размер потока : 3,12 Гбайт (82%)
Заголовок : RIP | MZMA
Библиотека кодирования : x264 core 152 r2851kMod ba24899
Настройки программы : cabac=1 / ref=12 / deblock=1:-2:-2 / analyse=0x3:0x113 / me=umh / subme=11 / psy=1 / fade_compensate=0.00 / psy_rd=1.00:0.00 / mixed_ref=1 / me_range=48 / chroma_me=1 / trellis=2 / 8x8dct=1 / cqm=0 / deadzone=21,11 / fast_pskip=0 / chroma_qp_offset=-2 / threads=6 / lookahead_threads=1 / sliced_threads=0 / nr=0 / decimate=0 / interlaced=0 / bluray_compat=0 / constrained_intra=0 / bframes=16 / b_pyramid=2 / b_adapt=2 / b_bias=0 / direct=3 / weightb=1 / open_gop=0 / weightp=2 / keyint=240 / keyint_min=23 / scenecut=40 / intra_refresh=0 / rc_lookahead=40 / rc=2pass / mbtree=0 / bitrate=5188 / ratetol=1.0 / qcomp=0.60 / qpmin=0 / qpmax=69 / qpstep=4 / cplxblur=20.0 / qblur=0.5 / vbv_maxrate=50000 / vbv_bufsize=62500 / nal_hrd=none / filler=0 / ip_ratio=1.25 / pb_ratio=1.30 / aq=3:0.70
Язык : English
По умолчанию : Да
Принудительно : Нет
Цветовой диапазон : Limited
Основные цвета : BT.709
Характеристики трансфера : BT.709
Коэффициенты матрицы : BT.709
Аудио #1
Идентификатор : 2
Формат : AC-3
Формат/Информация : Audio Coding 3
Идентификатор кодека : A_AC3
Продолжительность : 1 ч. 28 м.
Вид битрейта : Постоянный
Битрейт : 192 Кбит/сек
Каналы : 2 канала
Расположение каналов : Front: L R
Частота : 48,0 КГц
Частота кадров : 31,250 кадров/сек (1536 SPF)
Битовая глубина : 16 бит
Метод сжатия : С потерями
Размер потока : 121 Мбайт (3%)
Заголовок : DVO | НТВ+
Язык : Russian
По умолчанию : Да
Принудительно : Нет
Аудио #2
Идентификатор : 3
Формат : AC-3
Формат/Информация : Audio Coding 3
Идентификатор кодека : A_AC3
Продолжительность : 1 ч. 28 м.
Вид битрейта : Постоянный
Битрейт : 192 Кбит/сек
Каналы : 2 канала
Расположение каналов : Front: L R
Частота : 48,0 КГц
Частота кадров : 31,250 кадров/сек (1536 SPF)
Битовая глубина : 16 бит
Метод сжатия : С потерями
Размер потока : 121 Мбайт (3%)
Заголовок : AVO | В. Белов
Язык : Russian
По умолчанию : Нет
Принудительно : Нет
Аудио #3
Идентификатор : 4
Формат : AC-3
Формат/Информация : Audio Coding 3
Идентификатор кодека : A_AC3
Продолжительность : 1 ч. 28 м.
Вид битрейта : Постоянный
Битрейт : 192 Кбит/сек
Каналы : 2 канала
Расположение каналов : Front: L R
Частота : 48,0 КГц
Частота кадров : 31,250 кадров/сек (1536 SPF)
Битовая глубина : 16 бит
Метод сжатия : С потерями
Размер потока : 121 Мбайт (3%)
Заголовок : AVO | В. Горчаков
Язык : Russian
По умолчанию : Нет
Принудительно : Нет
Аудио #4
Идентификатор : 5
Формат : AC-3
Формат/Информация : Audio Coding 3
Идентификатор кодека : A_AC3
Продолжительность : 1 ч. 28 м.
Вид битрейта : Постоянный
Битрейт : 192 Кбит/сек
Каналы : 1 канал
Расположение каналов : Front: C
Частота : 48,0 КГц
Частота кадров : 31,250 кадров/сек (1536 SPF)
Битовая глубина : 16 бит
Метод сжатия : С потерями
Размер потока : 121 Мбайт (3%)
Заголовок : MVO | ICTV
Язык : Ukrainian
По умолчанию : Нет
Принудительно : Нет
Аудио #5
Идентификатор : 6
Формат : AC-3
Формат/Информация : Audio Coding 3
Идентификатор кодека : A_AC3
Продолжительность : 1 ч. 28 м.
Вид битрейта : Постоянный
Битрейт : 224 Кбит/сек
Каналы : 2 канала
Расположение каналов : Front: L R
Частота : 48,0 КГц
Частота кадров : 31,250 кадров/сек (1536 SPF)
Битовая глубина : 16 бит
Метод сжатия : С потерями
Размер потока : 141 Мбайт (4%)
Заголовок : Original
Язык : English
По умолчанию : Нет
Принудительно : Нет
Текст
Идентификатор : 7
Формат : UTF-8
Идентификатор кодека : S_TEXT/UTF8
Идентификатор кодека/Информация : UTF-8 Plain Text
Язык : English
По умолчанию : Нет
Принудительно : Нет
Меню
00:00:00.000 : en:Chapter 01
00:10:21.853 : en:Chapter 02
00:20:40.972 : en:Chapter 03
00:30:29.059 : en:Chapter 04
00:40:21.651 : en:Chapter 05
00:51:44.333 : en:Chapter 06
01:02:19.468 : en:Chapter 07
01:12:26.074 : en:Chapter 08
01:22:55.703 : en:Chapter 09
:
Скачать

Для того, чтобы

Оставайтесь с нами / Stay Tuned (1992) BDRip 720p от KORSAR | P, P2, A

с нашего сайта, Вам необходимо Войти на сайт под своим логином! Если у Вас ещё нет логина, тогда Вам нужно сначала:




Как скачивать? · Что такое торрент? · Рейтинг и ограничения

Показать сообщения:    

Текущее время: 17-Янв 21:16

Часовой пояс: UTC + 4



Вы не можете начинать темы
Вы не можете отвечать на сообщения
Вы не можете редактировать свои сообщения
Вы не можете удалять свои сообщения
Вы не можете голосовать в опросах
Вы не можете прикреплять файлы к сообщениям
Вы не можете скачивать файлы

Скачать через торрент фильмы 4K Ultra HD 2160p бесплатно, на первом свободном torrent трекере без надоедливой рекламы. Качаем без ограничений, рейтингов и прочих трудностей. Ищите любимый сериал, у нас вы найдёте множество сериалов, фильмов, игр, музыки. Скачать торрентом не составит труда даже не опытному пользователю. Все торрент файлы доступны к скачиванию только зарегистрированному пользователю. Пройди регистрацию на freetorrent и качай по полной без ограничений. И не забудьте поделиться ссылкой на наш сайт - мы будем очень благодарны. Это даёт нам сил и заряда для жизни проекта.

Ежедневно в мир выходит столько новых картин, что уследить за всеми просто не представляется возможным. На нашем крупнейшем русскоязычном торрент трекере вы сможете без труда скачать фильмы 4к через торрент бесплатно новинки фильмов, не проходя утомительную регистрацию с подтверждением в смс, без назойливой рекламы и перехода по подозрительным ссылкам, все желаемые файлы находятся в открытом доступе и доступны к загрузке без начисления рейтинга. Скачать новинки выгодно не только в финансовом плане, любую загруженную киноленту можно посмотреть в удобное время и в высоком качестве. Самая лучшая подборка кино фильмов 60 fps | UHD 2160p | 4K утолит желание каждого киномана, каталог постоянно пополняется только лучшими релизами. У нас представлена огромная коллекция как недавно вышедших новинок, так и давно полюбившихся бестселлеров. Для того, чтобы получить файл, вам стоит лишь перейти на вкладку искомого материала и скачать нужный торрент и подождать, пока программа перенесет полнометражную картину на компьютер. Главная страница послужит путеводителем и афишей, где можно за несколько минут найти необходимое. Первый русский свободный торрент сделан с максимальным комфортом для пользователя, не нужно тратить время на изучение интерфейса. Желаем вам приятного просмотра! Постоянное обновление и пополнение - новинками популярных игр, новый и безопасный софт, мультимедиа кпк Свободный торрент трекер.