Человек на Луне / First Man (2018) BDRemux 1080p | iTunes скачать торрент

Вы посетили страницу нашего torrent трекера и теперь имеете возможность скачать бесплатно через торрент Человек на Луне / First Man (2018) BDRemux 1080p | iTunes в хорошем качестве. Только лучшие релизы, на свободном torrent трекере.

 

Glix ®

Пол:
Мужской
Стаж:
2 года 6 месяцев
Сообщений:
2629

Информация о фильме
Название: Человек на Луне
Оригинальное название: First Man
Год выхода: 2018
Жанр: Драма, биография, история
Режиссер: Дэмьен Шазелл
В ролях: Клер Фой, Райан Гослинг, Пабло Шрайбер, Кристофер Эбботт, Итэн Эмбри, Киаран Хайндс, Джейсон Кларк, Кайл Чандлер, Кори Столл, Шей Уигэм

О фильме: Судьба любит смельчаков, а Нил Армстронг однозначно принадлежит к их числу. Весь мир знает его имя, но мало кому известно, какой ценой астронавту дался маленький шаг, ставший огромным скачком для всего человечества.

Страна: США
Студия: Amblin Entertainment, DreamWorks SKG
Продолжительность: 02:20:59
Перевод: Дублированный | iTunes
Качество: BDRemux 1080p
Видео: MPEG-4 AVC, 1920x1080, 29.1 Mbit/s, 23.976 fps
Звук:
Аудио #01: 48 kHz, AC3, 5.1, 384 Kbps | iTunes | RUS |
Аудио #02: 48 kHz, TrueHD, 7.1, 2679 Kbps | Оригинал | ENG |
Аудио #03: 48 kHz, AC3, 5.1, 448 Kbps | Оригинал | ENG |
Субтитры: Русские (Forced, full), английские

MI

General
Unique ID : 215984356473123259528698917989752882221 (0xA27D12EF601D95F96F237544E779C42D)
Complete name : D:Video111First.Man.2018.BDREMUX.1080p.seleZen.mkv
Format : Matroska
Format version : Version 4
File size : 32.2 GiB
Duration : 2 h 20 min
Overall bit rate mode : Variable
Overall bit rate : 32.6 Mb/s
Movie name : First Man 2018 from селезень
Encoded date : UTC 2019-01-12 09:48:57
Writing application : mkvmerge v29.0.0 ('Like It Or Not') 64-bit
Writing library : libebml v1.3.6 + libmatroska v1.4.9
Video
ID : 1
Format : AVC
Format/Info : Advanced Video Codec
Format profile : High@L4.1
Format settings : CABAC / 4 Ref Frames
Format settings, CABAC : Yes
Format settings, ReFrames : 4 frames
Codec ID : V_MPEG4/ISO/AVC
Duration : 2 h 20 min
Bit rate mode : Variable
Bit rate : 29.1 Mb/s
Maximum bit rate : 33.0 Mb/s
Width : 1 920 pixels
Height : 1 080 pixels
Display aspect ratio : 16:9
Frame rate mode : Constant
Frame rate : 23.976 (24000/1001) FPS
Color space : YUV
Chroma subsampling : 4:2:0
Bit depth : 8 bits
Scan type : Progressive
Bits/(Pixel*Frame) : 0.585
Stream size : 28.6 GiB (89%)
Language : English
Default : Yes
Forced : No
Audio #1
ID : 2
Format : AC-3
Format/Info : Audio Coding 3
Commercial name : Dolby Digital
Codec ID : A_AC3
Duration : 2 h 20 min
Bit rate mode : Constant
Bit rate : 384 kb/s
Channel(s) : 6 channels
Channel layout : L R C LFE Ls Rs
Sampling rate : 48.0 kHz
Frame rate : 31.250 FPS (1536 SPF)
Bit depth : 16 bits
Compression mode : Lossy
Stream size : 387 MiB (1%)
Title : iTunes
Language : Russian
Service kind : Complete Main
Default : Yes
Forced : Yes
Audio #2
ID : 3
Format : MLP FBA 16-ch
Format/Info : Meridian Lossless Packing FBA with 16-channel presentation
Commercial name : Dolby TrueHD with Dolby Atmos
Codec ID : A_TRUEHD
Duration : 2 h 20 min
Bit rate mode : Variable
Bit rate : 2 679 kb/s
Maximum bit rate : 4 533 kb/s
Channel(s) : 8 channels
Channel layout : L R C LFE Ls Rs Lb Rb
Sampling rate : 48.0 kHz
Frame rate : 1 200.000 FPS (40 SPF)
Compression mode : Lossless
Stream size : 2.64 GiB (8%)
Title : Original
Language : English
Default : No
Forced : No
Number of dynamic objects : 11
Bed channel count : 1 channel
Bed channel configuration : LFE
Audio #3
ID : 4
Format : AC-3
Format/Info : Audio Coding 3
Commercial name : Dolby Digital
Codec ID : A_AC3
Duration : 2 h 20 min
Bit rate mode : Constant
Bit rate : 448 kb/s
Channel(s) : 6 channels
Channel layout : L R C LFE Ls Rs
Sampling rate : 48.0 kHz
Frame rate : 31.250 FPS (1536 SPF)
Bit depth : 16 bits
Compression mode : Lossy
Stream size : 452 MiB (1%)
Language : English
Service kind : Complete Main
Default : No
Forced : No
Text #1
ID : 5
Format : UTF-8
Codec ID : S_TEXT/UTF8
Codec ID/Info : UTF-8 Plain Text
Duration : 33 min 56 s
Bit rate : 1 b/s
Count of elements : 4
Stream size : 307 Bytes (0%)
Title : Forced
Language : Russian
Default : Yes
Forced : Yes
Text #2
ID : 6
Format : UTF-8
Codec ID : S_TEXT/UTF8
Codec ID/Info : UTF-8 Plain Text
Duration : 2 h 12 min
Bit rate : 78 b/s
Count of elements : 1564
Stream size : 76.7 KiB (0%)
Title : Full
Language : Russian
Default : No
Forced : No
Text #3
ID : 7
Format : UTF-8
Codec ID : S_TEXT/UTF8
Codec ID/Info : UTF-8 Plain Text
Duration : 2 h 10 min
Bit rate : 48 b/s
Count of elements : 1376
Stream size : 46.9 KiB (0%)
Title : Full
Language : English
Default : No
Forced : No
Text #4
ID : 8
Format : UTF-8
Codec ID : S_TEXT/UTF8
Codec ID/Info : UTF-8 Plain Text
Duration : 2 h 12 min
Bit rate : 55 b/s
Count of elements : 1596
Stream size : 53.9 KiB (0%)
Title : SDH
Language : English
Default : No
Forced : No
Menu
00:00:00.000 : en:00:00:00.000
00:07:20.440 : en:00:07:20.440
00:13:35.982 : en:00:13:35.982
00:19:53.192 : en:00:19:53.192
00:25:59.725 : en:00:25:59.725
00:31:30.138 : en:00:31:30.138
00:40:17.248 : en:00:40:17.248
00:49:57.703 : en:00:49:57.703
01:00:03.016 : en:01:00:03.016
01:05:42.397 : en:01:05:42.397
01:11:05.720 : en:01:11:05.720
01:15:12.967 : en:01:15:12.967
01:21:32.888 : en:01:21:32.888
01:30:35.305 : en:01:30:35.305
01:39:00.726 : en:01:39:00.726
01:48:58.490 : en:01:48:58.490
01:54:44.419 : en:01:54:44.419
02:00:14.916 : en:02:00:14.916
02:09:55.705 : en:02:09:55.705
02:14:02.743 : en:02:14:02.743

eac3to Log

eac3to v3.34
command line: eac3to F:DownloadsFirst.Man.2018.COMPLETE.BLURAY 1) -demux -keepdialnorm
------------------------------------------------------------------------------
M2TS, 1 video track, 5 audio tracks, 5 subtitle tracks, 2:21:00, 24p /1.001
1: Chapters, 20 chapters
2: h264/AVC, 1080p24 /1.001 (16:9)
3: TrueHD/AC3 (Atmos), English, 7.1 channels, 48kHz
(embedded: AC3, 5.1 channels, 448kbps, 48kHz, dialnorm: -27dB)
4: E-AC3, Spanish, 7.1 channels, 768kbps, 48kHz, dialnorm: -27dB
(core: AC3, 5.1 channels, 448kbps, 48kHz, dialnorm: -27dB)
5: E-AC3, French, 7.1 channels, 768kbps, 48kHz, dialnorm: -27dB
(core: AC3, 5.1 channels, 448kbps, 48kHz, dialnorm: -27dB)
6: AC3 Surround, English, 2.0 channels, 192kbps, 48kHz, dialnorm: -27dB
7: AC3 Surround, English, 2.0 channels, 192kbps, 48kHz, dialnorm: -27dB
8: Subtitle (PGS), English
9: Subtitle (PGS), Spanish
10: Subtitle (PGS), French
11: Subtitle (PGS), Spanish
12: Subtitle (PGS), French
Creating file "00800 - Chapters.txt"...
[a06] Extracting audio track number 6...
[s10] Extracting subtitle track number 10...
[a04] Extracting audio track number 4...
[s09] Extracting subtitle track number 9...
[v02] Extracting video track number 2...
[s08] Extracting subtitle track number 8...
[a05] Extracting audio track number 5...
[s12] Extracting subtitle track number 12...
[s11] Extracting subtitle track number 11...
[a03] Extracting audio track number 3...
[a07] Extracting audio track number 7...
[v02] Creating file "00800 - 2 - h264, 1080p24.h264"...
[a03] Creating file "00800 - 3 - TrueHD+AC3 (Atmos), English, 7.1 channels, 48kHz.thd+ac3"...
[a05] Creating file "00800 - 5 - E-AC3, French, 7.1 channels, 768kbps, 48kHz.eac3"...
[a04] Creating file "00800 - 4 - E-AC3, Spanish, 7.1 channels, 768kbps, 48kHz.eac3"...
[a07] Creating file "00800 - 7 - AC3 Surround, English, 2.0 channels, 192kbps, 48kHz.ac3"...
[a06] Creating file "00800 - 6 - AC3 Surround, English, 2.0 channels, 192kbps, 48kHz.ac3"...
[s08] Creating file "00800 - 8 - Subtitle (PGS), English.sup"...
[s10] Creating file "00800 - 10 - Subtitle (PGS), French.sup"...
[s09] Creating file "00800 - 9 - Subtitle (PGS), Spanish.sup"...
[s12] Creating file "00800 - 12 - Subtitle (PGS), French.sup"...
[s11] Creating file "00800 - 11 - Subtitle (PGS), Spanish.sup"...
Video track 2 contains 202835 frames.
Subtitle track 8 contains 1596 captions.
Subtitle track 9 contains 1398 captions.
Subtitle track 10 contains 1406 captions.
Subtitle track 11 contains 46 captions.
Subtitle track 12 contains 141 captions.
eac3to processing took 3 minutes, 31 seconds.
Done.
Скачать

Для того, чтобы

Человек на Луне / First Man (2018) BDRemux 1080p | iTunes

с нашего сайта, Вам необходимо Войти на сайт под своим логином! Если у Вас ещё нет логина, тогда Вам нужно сначала:




Как скачивать? · Что такое торрент? · Рейтинг и ограничения

Показать сообщения:    

Текущее время: 27-Мар 04:07

Часовой пояс: UTC + 4



Вы не можете начинать темы
Вы не можете отвечать на сообщения
Вы не можете редактировать свои сообщения
Вы не можете удалять свои сообщения
Вы не можете голосовать в опросах
Вы не можете прикреплять файлы к сообщениям
Вы не можете скачивать файлы

Скачать через торрент фильмы 4K Ultra HD 2160p бесплатно, на первом свободном torrent трекере без надоедливой рекламы. Качаем без ограничений, рейтингов и прочих трудностей. Ищите любимый сериал, у нас вы найдёте множество сериалов, фильмов, игр, музыки. Скачать торрентом не составит труда даже не опытному пользователю. Все торрент файлы доступны к скачиванию только зарегистрированному пользователю. Пройди регистрацию на freetorrent и качай по полной без ограничений. И не забудьте поделиться ссылкой на наш сайт - мы будем очень благодарны. Это даёт нам сил и заряда для жизни проекта.

Ежедневно в мир выходит столько новых картин, что уследить за всеми просто не представляется возможным. На нашем крупнейшем русскоязычном торрент трекере вы сможете без труда скачать фильмы 4к через торрент бесплатно новинки фильмов, не проходя утомительную регистрацию с подтверждением в смс, без назойливой рекламы и перехода по подозрительным ссылкам, все желаемые файлы находятся в открытом доступе и доступны к загрузке без начисления рейтинга. Скачать новинки выгодно не только в финансовом плане, любую загруженную киноленту можно посмотреть в удобное время и в высоком качестве. Самая лучшая подборка кино фильмов 60 fps | UHD 2160p | 4K утолит желание каждого киномана, каталог постоянно пополняется только лучшими релизами. У нас представлена огромная коллекция как недавно вышедших новинок, так и давно полюбившихся бестселлеров. Для того, чтобы получить файл, вам стоит лишь перейти на вкладку искомого материала и скачать нужный торрент и подождать, пока программа перенесет полнометражную картину на компьютер. Главная страница послужит путеводителем и афишей, где можно за несколько минут найти необходимое. Первый русский свободный торрент сделан с максимальным комфортом для пользователя, не нужно тратить время на изучение интерфейса. Желаем вам приятного просмотра! Постоянное обновление и пополнение - новинками популярных игр, новый и безопасный софт, мультимедиа кпк Свободный торрент трекер.