Хантер Киллер / Hunter Killer (2018) WEBRip-AVC от OlLanDGroup | HDRezka Studio скачать торрент

Вы посетили страницу нашего torrent трекера и теперь имеете возможность скачать бесплатно через торрент Хантер Киллер / Hunter Killer (2018) WEBRip-AVC от OlLanDGroup | HDRezka Studio в хорошем качестве. Только лучшие релизы, на свободном torrent трекере.

 

leerik ®

Пол:
Не указан
Стаж:
2 года 5 месяцев
Сообщений:
7139

Хантер Киллер / Hunter Killer
«Courage Runs Deep»-

Год выпуска: 2018
Страна: США
Производство: Hunter Killer Productions, G-BASE, Hishow Entertainment
Жанр: Боевик, триллер-Режиссёр: Донован Марш
В ролях: Джерард Батлер, Гэри Олдман, Коммон, Зейн Холц, Микаэл Нюквист, Тоби Стивенс, Линда Карделлини, Кори Джонсон, Адам Джеймс, Генри Гудман, Колин Стинтон, Александр Дьяченко, Михаил Горевой, Юрий Колокольников-Перевод: Профессиональный (многоголосый, закадровый) | []
Субтитры: Нет
Реклама: Отсутствует
Описание: Американская атакующая субмарина «Хантер Киллер» вместе с подразделением Военно-Морских сил США вступает в крайне рискованную боевую авантюру по спасению мира от катастрофы. Когда время на исходе и каждая минута на счету, элитной команде придется совершить невозможное, чтобы предотвратить конфликт мирового масштаба.
-Качество: WEBRip-AVC | |
Продолжительность: 02:00:54
Формат: MKV
Видео кодек: MPEG-4 AVC
Аудио кодек: AC3
Видео: 960x400 (2.40:1), 25,000 fps, x264 ~1 535 kbps avg, 0.160 bit/pixel
Аудио #1: 48 kHz, AC3 Dolby Digital, 2 (L,R) ch, ~192.00 kbps avg | RUS ()-Дата премьеры (мир): 19 октября 2018
Дата премьеры (РФ): 8 ноября 2018, «MEGOGO Distribution»
Цифровой релиз:

MediaInfo

Общее
Уникальный идентификатор : 63298358666204445837794666387928388070 (0x2F9ED20843483DC88FBD632E397E11E6)
Полное имя : F:Hunter.Killer.2018.WEBRip(AVC)..mkv
Формат : Matroska
Версия формата : Version 4 / Version 2
Размер файла : 1,46 Гбайт
Продолжительность : 2 ч. 0 м.
Общий поток : 1728 Кбит/сек
Название фильма : Hunter.Killer.2018 #TorpedoUK#
Дата кодирования : UTC 2019-01-11 15:17:24
Программа кодирования : mkvmerge v29.0.0 (#039;Like It Or Not#039;) 64-bit
Библиотека кодирования : libebml v1.3.6 + libmatroska v1.4.9
Видео
Идентификатор : 1
Формат : AVC
Формат/Информация : Advanced Video Codec
Профиль формата : High@L4.1
Параметр CABAC формата : Да
Параметр ReFrames формата : 10 кадров
Идентификатор кодека : V_MPEG4/ISO/AVC
Продолжительность : 2 ч. 0 м.
Битрейт : 1535 Кбит/сек
Ширина : 960 пикселей
Высота : 400 пикселей
Соотношение сторон : 2,40:1
Режим частоты кадров : Постоянный
Частота кадров : 25,000 кадров/сек
Цветовое пространство : YUV
Субдискретизация насыщенности : 4:2:0
Битовая глубина : 8 бит
Тип развёртки : Прогрессивная
Бит/(Пиксели*Кадры) : 0.160
Размер потока : 1,30 Гбайт (89%)
Библиотека кодирования : x264 core 146 r2538 121396c
Настройки программы : cabac=1 / ref=10 / deblock=1:-3:-2 / analyse=0x3:0x113 / me=umh / subme=11 / psy=1 / psy_rd=0.95:0.07 / mixed_ref=1 / me_range=48 / chroma_me=1 / trellis=2 / 8x8dct=1 / cqm=0 / deadzone=21,11 / fast_pskip=1 / chroma_qp_offset=-3 / threads=6 / lookahead_threads=1 / sliced_threads=0 / nr=0 / decimate=1 / interlaced=0 / bluray_compat=0 / constrained_intra=0 / bframes=11 / b_pyramid=2 / b_adapt=2 / b_bias=0 / direct=3 / weightb=1 / open_gop=0 / weightp=2 / keyint=250 / keyint_min=25 / scenecut=40 / intra_refresh=0 / rc_lookahead=40 / rc=2pass / mbtree=0 / bitrate=1535 / ratetol=1.0 / qcomp=0.60 / qpmin=0 / qpmax=69 / qpstep=4 / cplxblur=20.0 / qblur=0.5 / vbv_maxrate=50000 / vbv_bufsize=62500 / nal_hrd=none / filler=0 / ip_ratio=1.40 / pb_ratio=1.30 / aq=1:1.00
Default : Да
Forced : Нет
Аудио
Идентификатор : 2
Формат : AC-3
Формат/Информация : Audio Coding 3
Расширение режима : CM (complete main)
Параметр Endianness формата : Big
Идентификатор кодека : A_AC3
Продолжительность : 2 ч. 0 м.
Вид битрейта : Постоянный
Битрейт : 192 Кбит/сек
Каналы : 2 канала
Расположение каналов : Front: L R
Частота : 48,0 КГц
Частота кадров : 31,250 кадров/сек (1536 spf)
Битовая глубина : 16 бит
Метод сжатия : С потерями
Размер потока : 166 Мбайт (11%)
Заголовок : MVO []
Язык : Russian
Default : Да
Forced : Нет

Скриншоты



Скачать

Для того, чтобы

Хантер Киллер / Hunter Killer (2018) WEBRip-AVC от OlLanDGroup | HDRezka Studio

с нашего сайта, Вам необходимо Войти на сайт под своим логином! Если у Вас ещё нет логина, тогда Вам нужно сначала:




Как скачивать? · Что такое торрент? · Рейтинг и ограничения

Показать сообщения:    

Текущее время: 27-Мар 04:32

Часовой пояс: UTC + 4



Вы не можете начинать темы
Вы не можете отвечать на сообщения
Вы не можете редактировать свои сообщения
Вы не можете удалять свои сообщения
Вы не можете голосовать в опросах
Вы не можете прикреплять файлы к сообщениям
Вы не можете скачивать файлы

Скачать через торрент фильмы 4K Ultra HD 2160p бесплатно, на первом свободном torrent трекере без надоедливой рекламы. Качаем без ограничений, рейтингов и прочих трудностей. Ищите любимый сериал, у нас вы найдёте множество сериалов, фильмов, игр, музыки. Скачать торрентом не составит труда даже не опытному пользователю. Все торрент файлы доступны к скачиванию только зарегистрированному пользователю. Пройди регистрацию на freetorrent и качай по полной без ограничений. И не забудьте поделиться ссылкой на наш сайт - мы будем очень благодарны. Это даёт нам сил и заряда для жизни проекта.

Ежедневно в мир выходит столько новых картин, что уследить за всеми просто не представляется возможным. На нашем крупнейшем русскоязычном торрент трекере вы сможете без труда скачать фильмы 4к через торрент бесплатно новинки фильмов, не проходя утомительную регистрацию с подтверждением в смс, без назойливой рекламы и перехода по подозрительным ссылкам, все желаемые файлы находятся в открытом доступе и доступны к загрузке без начисления рейтинга. Скачать новинки выгодно не только в финансовом плане, любую загруженную киноленту можно посмотреть в удобное время и в высоком качестве. Самая лучшая подборка кино фильмов 60 fps | UHD 2160p | 4K утолит желание каждого киномана, каталог постоянно пополняется только лучшими релизами. У нас представлена огромная коллекция как недавно вышедших новинок, так и давно полюбившихся бестселлеров. Для того, чтобы получить файл, вам стоит лишь перейти на вкладку искомого материала и скачать нужный торрент и подождать, пока программа перенесет полнометражную картину на компьютер. Главная страница послужит путеводителем и афишей, где можно за несколько минут найти необходимое. Первый русский свободный торрент сделан с максимальным комфортом для пользователя, не нужно тратить время на изучение интерфейса. Желаем вам приятного просмотра! Постоянное обновление и пополнение - новинками популярных игр, новый и безопасный софт, мультимедиа кпк Свободный торрент трекер.