Вы посетили страницу нашего torrent трекера и теперь имеете возможность скачать через торрент Монтана / Montana (2017) HDTVRip-AVC | LakeFilms бесплатно в хорошем качестве. Только лучшие релизы, на свободном torrent трекере.

Все раздачи мультитрекерные, даже при нуле сидов, можно качать на максимальной скорости. Скорость скачивания без ограничений !!!

Статистика раздачи [Обновить пиров]
Размер:  754 MB   |    Зарегистрирован:  3 дня   |    Скачан:  10 раз
Сидов:  5  [  0 KB/s  ]   Личеров:  1  [  0 KB/s  ]   Подробная статистика пиров
 
   
 
 

leerik ®

Пол:
Не указан
Стаж:
2 года 2 месяца
Сообщений:
5734


Название: Монтана
Оригинальное название: Montana
Год выпуска: 2017
Жанр: Драма
Выпущено: Израиль
Режиссер: Лимор Шмила
В ролях: Ноа Бирон, Ави Малка, Хай Маор, Надав Нир, Хава Ортман, Нетта Шпигельман, Керен Цур
О фильме: Эфрат, в детстве уехавшая с матерью во Францию, спустя много лет приезжает в родной город Акко, на похороны дедушки. В доме, где девушка жила в детстве, теперь живёт с мужем и детьми красавица Керен. С первой же встречи молодые женщины начинают испытывать друг к другу непреодолимое влечение...

Техданные
Качество: HDTVRip-AVC
Видео: MPEG-4 AVC, 1287 Кбит/с, 720x304, 25.000 FPS
Аудио: AAC, 2 ch, 192 Кбит/с
Продолжительность: 01:11:09
Перевод: Любительский двухголосый закадровый (LakeFilms)
Присутствует реклама!

Скриншоты

MI

General
Complete name : C:UserswillyDesktopMontana.HDTVRip-AVC.LakeFilms.mp4
Format : MPEG-4
Format profile : Base Media / Version 2
Codec ID : mp42 (mp42/mp41)
File size : 754 MiB
Duration : 1 h 11 min
Overall bit rate mode : Variable
Overall bit rate : 1 480 kb/s
Encoded date : UTC 2018-12-05 18:46:14
Tagged date : UTC 2018-12-05 18:57:26
TIM : 00:00:00:00
TSC : 25
TSZ : 1
Video
ID : 1
Format : AVC
Format/Info : Advanced Video Codec
Format profile : Main@L3.1
Format settings : CABAC / 4 Ref Frames
Format settings, CABAC : Yes
Format settings, ReFrames : 4 frames
Codec ID : avc1
Codec ID/Info : Advanced Video Coding
Duration : 1 h 11 min
Bit rate : 1 287 kb/s
Width : 720 pixels
Height : 304 pixels
Display aspect ratio : 2.35:1
Frame rate mode : Constant
Frame rate : 25.000 FPS
Standard : PAL
Color space : YUV
Chroma subsampling : 4:2:0
Bit depth : 8 bits
Scan type : Progressive
Bits/(Pixel*Frame) : 0.235
Stream size : 656 MiB (87%)
Language : English
Encoded date : UTC 2018-12-05 18:46:14
Tagged date : UTC 2018-12-05 18:46:14
Color range : Limited
Color primaries : BT.601 NTSC
Transfer characteristics : BT.601
Matrix coefficients : BT.601
Codec configuration box : avcC
Audio
ID : 2
Format : AAC LC
Format/Info : Advanced Audio Codec Low Complexity
Codec ID : mp4a-40-2
Duration : 1 h 11 min
Source duration : 1 h 11 min
Bit rate mode : Variable
Bit rate : 192 kb/s
Maximum bit rate : 300 kb/s
Channel(s) : 2 channels
Channel layout : L R
Sampling rate : 48.0 kHz
Frame rate : 46.875 FPS (1024 SPF)
Compression mode : Lossy
Stream size : 96.5 MiB (13%)
Source stream size : 96.5 MiB (13%)
Language : English
Encoded date : UTC 2018-12-05 18:46:15
Tagged date : UTC 2018-12-05 18:46:15
[fromtor.com].t53188.torrent 
Торрент: Зарегистрирован [ 2018-12-06 12:40 ] · DB87411F50D6E32BD127C3FAFC083C39FDA23EB2

Скачать .torrent

Скачать

16 KB

Статус: проверено
Скачан: 10 раз
Размер: 754 MB
Оценка: 
(Голосов: 0)
Поблагодарили: 0  Спасибо

Только лучшие релизы, вы можете скачать бесплатно через торрент без регистрации.

Поделись ссылкой с друзьями!!!

terms.php

Показать сообщения:    

Текущее время: 09-Дек 22:59

Часовой пояс: UTC + 4



Вы не можете начинать темы
Вы не можете отвечать на сообщения
Вы не можете редактировать свои сообщения
Вы не можете удалять свои сообщения
Вы не можете голосовать в опросах
Вы не можете прикреплять файлы к сообщениям
Вы можете скачивать файлы

Скачать через торрент на свободном торрент трекере лучшие новинки фильмов любых жанров бесплатно, без надоедливой рекламы. Качаем без ограничений, рейтингов и прочих трудностей. Ищите любимый сериал, у нас вы найдёте множество сериалов, фильмов, игр, музыки. Скачать торрентом не составит труда даже не опытному пользователю. Все торрент файлы доступны к скачиванию только зарегистрированному пользователю. Пройди регистрацию на freetorrent и качай по полной лучшие без ограничений. И не забудьте поделиться ссылкой на наш сайт - мы будем очень благодарны. Это даёт нам сил и заряда для жизни проекта.
Ежедневно в мир выходит столько новых картин, что уследить за всеми просто не представляется возможным. На нашем крупнейшем русскоязычном торрент трекере вы сможете без труда скачать торрентом новинки фильмов, не проходя утомительную регистрацию с подтверждением в смс, без назойливой рекламы и перехода по подозрительным ссылкам, все желаемые файлы находятся в открытом доступе и доступны к загрузке без начисления рейтинга. Скачать новинки выгодно не только в финансовом плане, любую загруженную киноленту можно посмотреть в удобное время и в высоком качестве. Самая лучшая подборка кинофильмов утолит желание каждого киномана, каталог постоянно пополняется только лучшими релизами. У нас представлена огромная коллекция как недавно вышедших новинок, так и давно полюбившихся бестселлеров. Для того, чтобы получить файл, вам стоит лишь перейти на вкладку искомого материала и скачать нужный торрент и подождать, пока программа перенесет полнометражную картину на компьютер. Главная страница послужит путеводителем и афишей, где можно за несколько минут найти необходимое. Первый русский свободный торрент сделан с максимальным комфортом для пользователя, не нужно тратить время на изучение интерфейса. Желаем вам приятного просмотра! Постоянное обновление и пополнение - новинками популярных игр, новый и безопасный софт, мультимедиа кпк Свободный торрент трекер.